<?xml version="1.0" standalone="no"?>
<!DOCTYPE svg PUBLIC "-//W3C//DTD SVG 1.1//EN" "http://www.w3.org/Graphics/SVG/1.1/DTD/svg11.dtd" >
<svg xmlns="http://www.w3.org/2000/svg" xmlns:xlink="http://www.w3.org/1999/xlink" version="1.1">
<metadata></metadata>
<defs>
<font id="alegreya_sansitalic" horiz-adv-x="899" >
<font-face units-per-em="2048" ascent="1638" descent="-410" />
<missing-glyph horiz-adv-x="299" />
<glyph unicode="&#xa8;I" horiz-adv-x="530" d="M129 0l57 395l107 916h153l-120 -903l-43 -408h-154zM195 1610q0 41 24.5 65.5t65.5 24.5q37 0 58.5 -23t21.5 -61q0 -41 -23 -65.5t-63 -24.5t-62 22t-22 62zM451 1610q0 41 23.5 65.5t64.5 24.5q38 0 60 -23t22 -61q0 -41 -23.5 -65.5t-62.5 -24.5q-41 0 -62.5 22 t-21.5 62z" />
<glyph unicode="&#xa8;O" horiz-adv-x="1251" d="M96 522q0 378 167 590.5t474 212.5q224 0 347.5 -137t123.5 -387q0 -382 -168 -599.5t-475 -217.5q-222 0 -345.5 141.5t-123.5 396.5zM254 532q0 -419 324 -419q233 0 351 171.5t118 497.5q0 414 -328 414q-233 0 -349 -170t-116 -494zM520 1612q0 41 23.5 65.5 t64.5 24.5q38 0 60 -23.5t22 -60.5q0 -41 -24 -66.5t-62 -25.5q-40 0 -62 23t-22 63zM846 1610q0 42 24 66t66 24q37 0 58.5 -23t21.5 -61q0 -41 -23.5 -65.5t-62.5 -24.5q-40 0 -62 22t-22 62z" />
<glyph unicode="&#xb4;Y" horiz-adv-x="1028" d="M135 1311h162l14 -72l201 -596h14l373 592l39 76h168l-539 -834l-14 -94l-43 -383h-154l60 383l10 96zM455 1552q209 104 391 211l16 -4l41 -90l-6 -18q-89 -43 -395 -176l-19 8z" />
<glyph unicode="&#xa8;i" horiz-adv-x="446" d="M90 -8l107 743l8 199l151 14l-102 -725l-8 -217zM102 1237q0 41 25 65.5t66 24.5q37 0 58 -23t21 -61q0 -41 -23 -65.5t-63 -24.5t-62 22t-22 62zM358 1237q0 41 23.5 65.5t64.5 24.5q38 0 60 -23t22 -61q0 -41 -23.5 -65.5t-62.5 -24.5q-41 0 -62.5 22t-21.5 62z" />
<glyph unicode="&#xa8;o" horiz-adv-x="841" d="M74 305q0 280 122 458.5t332 190.5h17q112 -19 167.5 -94.5t55.5 -216.5q0 -286 -119 -464t-330 -197l-16 2q-117 22 -173 97.5t-56 223.5zM215 307q0 -107 29.5 -155t97.5 -48q135 0 209 144.5t74 384.5q0 104 -29 150t-94 46q-138 0 -212.5 -141t-74.5 -381zM289 1239 q0 41 23.5 65.5t64.5 24.5q38 0 60 -23.5t22 -60.5q0 -41 -24 -66.5t-62 -25.5q-40 0 -62 23t-22 63zM614 1237q0 41 24 65.5t67 24.5q37 0 58 -23t21 -61q0 -41 -23.5 -65.5t-62.5 -24.5q-40 0 -62 22t-22 62z" />
<glyph unicode="&#xb4;y" horiz-adv-x="833" d="M-211 -236l16 13q85 -31 150 -31q183 0 344 240l-184 948l149 14l25 -164l96 -602h27l184 350q74 139 74 226q0 70 -49 137l6 20l141 33q47 -75 47 -164q0 -124 -100 -303l-236 -415q-145 -252 -266 -358.5t-256 -106.5q-86 0 -160 32zM260 1126q190 158 332 297l18 -2 l58 -80l-4 -18q-204 -161 -345 -260l-16 2z" />
<glyph unicode="&#xfb01;" horiz-adv-x="1019" d="M115 -260l92 649l59 430h-141l-10 10l12 93h154l18 139q29 189 119 285t256 96l217 -45l6 -15l-37 -120l-24 -5q-106 72 -195 72q-81 0 -135.5 -60t-69.5 -169l-24 -178h379l118 26l15 -8l-101 -717l-10 -217l-156 -14l107 743l4 84h-371l-55 -411l-61 -437l-11 -219z " />
<glyph unicode="&#xfb02;" horiz-adv-x="1030" d="M115 829l14 93h152l20 153q29 187 123 284t268 97l195 -24l114 10l-170 -1219l-10 -217l-153 -14l174 1237l2 82q-102 30 -187 30q-88 0 -145 -58.5t-74 -170.5l-26 -190h221l12 -17l-14 -86h-234l-55 -411l-61 -437l-11 -219l-153 -12l90 649l59 430h-141z" />
<glyph horiz-adv-x="0" />
<glyph horiz-adv-x="682" />
<glyph unicode=" "  horiz-adv-x="299" />
<glyph unicode="&#x09;" horiz-adv-x="299" />
<glyph unicode="&#xa0;" horiz-adv-x="299" />
<glyph unicode="!" horiz-adv-x="534" d="M141 80q0 42 25 67t67 25q40 0 63 -23t23 -63q0 -43 -25 -69.5t-67 -26.5q-41 0 -63.5 24t-22.5 66zM213 453l109 874l18 19l119 6l14 -21l-151 -889l-95 -10z" />
<glyph unicode="&#x22;" horiz-adv-x="571" d="M162 928l55 370l121 9l8 -13l-92 -368l-80 -13zM399 928l58 370l118 9l11 -13l-94 -368l-80 -13z" />
<glyph unicode="#" horiz-adv-x="1050" d="M41 424l8 84h223l56 242h-203l-12 10l8 84h227l76 332h90l10 -15l-71 -317h225l76 332h90l10 -15l-72 -317h215l13 -10l-11 -84h-237l-55 -242h219l10 -10l-8 -84h-244l-78 -348h-90l-10 14l76 334h-228l-78 -348h-90l-10 14l76 334h-199zM377 508h225l55 242h-225z" />
<glyph unicode="$" horiz-adv-x="872" d="M57 59l25 131l20 9q47 -48 112.5 -76t129.5 -33l51 373q-42 19 -70.5 34t-63.5 39.5t-55.5 49.5t-35 62t-14.5 79q0 110 85.5 195t227.5 100l35 287h76l18 -17l-37 -268q105 -3 211 -47l-35 -125l-22 -6q-85 67 -164 76l-49 -365q40 -18 68 -33t60 -38.5t52 -48.5 t33.5 -61t13.5 -77q0 -108 -82 -195t-221 -108l-33 -260h-78l-12 14l29 240q-159 4 -275 69zM283 748q0 -48 33.5 -82t95.5 -66l43 318q-80 -13 -126 -62t-46 -108zM440 100q73 20 117.5 69t44.5 105q0 47 -30.5 81t-88.5 65z" />
<glyph unicode="%" horiz-adv-x="1697" d="M139 883q0 206 93.5 321t265.5 115q123 0 187.5 -72.5t64.5 -208.5q0 -208 -93 -324t-266 -116q-122 0 -187 74t-65 211zM211 -123l1155 1509l61 -38l9 -27l-1155 -1507l-62 39zM246 903q0 -203 164 -203q115 0 174 81.5t59 228.5q0 99 -42.5 150.5t-125.5 51.5 q-112 0 -170.5 -81t-58.5 -228zM989 274q0 205 94 322t265 117q123 0 188.5 -73t65.5 -210q0 -206 -93.5 -322t-265.5 -116q-123 0 -188.5 73.5t-65.5 208.5zM1096 295q0 -201 164 -201q115 0 174 81t59 228q0 203 -168 203q-112 0 -170.5 -81.5t-58.5 -229.5z" />
<glyph unicode="&#x26;" horiz-adv-x="1300" d="M117 301q0 240 303 373v8q-83 40 -127.5 114.5t-44.5 172.5q0 164 116.5 262t319.5 98q154 0 322 -74l-41 -131l-25 -4q-143 88 -283 88q-128 0 -199 -62t-71 -179q0 -101 56 -162.5t153 -69.5l571 31l193 25l14 -23l-33 -111l-352 -16l-4 -10q62 -91 62 -219 q0 -89 -32.5 -166.5t-94 -136.5t-157.5 -93t-216 -34q-200 0 -315 86.5t-115 232.5zM270 324q0 -105 79 -166.5t216 -61.5q166 0 256 87.5t90 230.5q0 69 -23.5 126.5t-66.5 92.5l-301 -12q-250 -111 -250 -297z" />
<glyph unicode="'" horiz-adv-x="331" d="M162 928l55 370l121 9l8 -13l-92 -368l-80 -13z" />
<glyph unicode="(" horiz-adv-x="587" d="M135 311q0 108 10.5 211t41 226t79 228.5t132 207t192.5 172.5h14l51 -51l-2 -15q-96 -67 -169 -165t-114.5 -197.5t-67 -216.5t-34 -210.5t-8.5 -189.5q0 -188 46.5 -311.5t160.5 -222.5l-2 -15l-64 -51h-14q-137 110 -194.5 247.5t-57.5 352.5z" />
<glyph unicode=")" horiz-adv-x="587" d="M-51 -238l2 15q96 67 169 165t114.5 197.5t67 216.5t34 210.5t8.5 189.5q0 187 -47 311t-160 223l2 15l64 51h14q138 -112 195 -249t57 -351q0 -107 -10.5 -210.5t-41.5 -226.5t-79.5 -228.5t-132 -207t-191.5 -172.5h-14z" />
<glyph unicode="*" horiz-adv-x="765" d="M176 1214q0 74 17 119l14 4l201 -120l-11 -66l-16 -6zM225 918v14l172 170l56 -31l2 -18l-123 -189q-31 11 -107 54zM436 1481q56 18 115 18l8 -12l-45 -244l-65 -8l-11 14zM496 1061l47 43l16 -2l127 -187q-25 -45 -82 -84l-14 3zM543 1204l6 17l205 73q40 -61 51 -106 l-6 -8l-230 -35z" />
<glyph unicode="+" horiz-adv-x="976" d="M66 502l22 96h361l45 365l98 8l12 -13l-45 -360h359l12 -12l-21 -97h-364l-43 -364l-99 -8l-10 12l43 360h-360z" />
<glyph unicode="," horiz-adv-x="468" d="M45 -170q113 90 113 180q0 52 -64 94v17q54 35 107 51q84 -53 84 -135q0 -131 -189 -268l-51 49v12z" />
<glyph unicode="-" horiz-adv-x="630" d="M57 444l13 99l503 69l13 -14l-13 -98l-503 -70z" />
<glyph unicode="." horiz-adv-x="471" d="M98 80q0 42 25 67t67 25q40 0 63 -23t23 -63q0 -43 -24.5 -69.5t-65.5 -26.5t-64.5 24.5t-23.5 65.5z" />
<glyph unicode="/" horiz-adv-x="589" d="M-6 -215l532 1604h105l12 -19l-532 -1601h-107z" />
<glyph unicode="0" horiz-adv-x="1089" d="M98 428q0 177 59.5 312t177 212.5t279.5 77.5q188 0 289 -110.5t101 -333.5q0 -272 -136 -436t-379 -164q-190 0 -290.5 110.5t-100.5 331.5zM221 446q0 -163 69.5 -243t213.5 -80q180 0 277.5 116t97.5 322q0 330 -285 330q-180 0 -276.5 -119.5t-96.5 -325.5z" />
<glyph unicode="1" horiz-adv-x="702" d="M63 784l15 121l422 121l20 -16l-82 -586l-43 -424h-153l57 406l53 446l-276 -78z" />
<glyph unicode="2" horiz-adv-x="929" d="M39 4l14 96l318 320q142 142 201 218.5t59 139.5q0 51 -39 84t-107 33q-73 0 -151 -37t-148 -104h-18l-8 118q185 154 364 154q115 0 187.5 -59.5t72.5 -155.5q0 -82 -67 -176.5t-246 -284.5l-213 -223l4 -6h381l174 12l8 -12l-37 -129l-202 8h-461l-76 -4z" />
<glyph unicode="3" horiz-adv-x="841" d="M0 -178l6 137l17 12q92 -47 198 -47q151 0 245.5 72t94.5 194q0 87 -63.5 137t-182.5 54h-118l-9 12l19 107l88 2q61 0 125.5 32t111 92.5t46.5 131.5q0 66 -44.5 104.5t-119.5 38.5q-122 0 -273 -123h-16l-8 123q86 66 161.5 96.5t157.5 30.5q138 0 219.5 -66t81.5 -174 q0 -91 -64 -179t-184 -144v-6q222 -59 222 -258q0 -171 -145 -285.5t-361 -114.5q-102 0 -205 21z" />
<glyph unicode="4" horiz-adv-x="980" d="M18 172l13 104l602 744h145l-92 -739h195l10 -15l-23 -108l-184 4h-10l-37 -338l-12 -12l-117 -11l-8 11l47 350h-387l-131 -4zM170 281h393l70 550h-12z" />
<glyph unicode="5" horiz-adv-x="851" d="M8 -182l4 137l15 12q108 -47 211 -47q154 0 249 82t95 209q0 163 -228 209l-190 37l-12 14l65 528l29 25l108 -4h277l184 6l6 -10l-28 -123l-13 -10l-145 10h-309l-43 -328l127 -26q319 -67 319 -312q0 -180 -152 -304t-374 -124q-79 0 -195 19z" />
<glyph unicode="6" horiz-adv-x="958" d="M86 367q0 89 21.5 178.5t74 186.5t131.5 182.5t202.5 165.5t279.5 137h10l117 -72l-2 -17q-516 -166 -648 -495l11 -12q139 92 264 92q138 0 226.5 -89.5t88.5 -224.5q0 -50 -11 -102t-40.5 -109.5t-74 -101.5t-118.5 -73t-167 -29q-178 0 -271.5 102.5t-93.5 280.5z M227 379q0 -131 52 -206t178 -75q75 0 129 26t82 69.5t40.5 90.5t12.5 99q0 103 -52.5 159t-150.5 56q-150 0 -285 -123q-6 -49 -6 -96z" />
<glyph unicode="7" horiz-adv-x="851" d="M90 -145l606 1036h-434l-153 -14l-11 16l27 131l178 -4h471l86 4l-12 -115l-510 -880l-121 -238l-123 39z" />
<glyph unicode="8" horiz-adv-x="970" d="M82 283q0 63 22 114.5t65 90.5t86.5 65.5t106.5 54.5l3 8q-82 46 -126 104.5t-44 156.5q0 149 102 242t266 93q140 0 224.5 -71.5t84.5 -198.5q0 -201 -239 -309l-2 -10q50 -24 82.5 -45.5t66 -55t50 -80t16.5 -106.5q0 -154 -112.5 -252t-295.5 -98q-163 0 -259.5 81.5 t-96.5 215.5zM213 299q0 -95 60 -150t169 -55q121 0 198 66.5t77 167.5q0 38 -12.5 69t-31.5 52.5t-53.5 43t-64 35t-78.5 33.5q-47 -18 -77 -30.5t-69.5 -36t-62 -48.5t-39 -63t-16.5 -84zM322 891q0 -84 48.5 -130.5t143.5 -86.5q50 20 87.5 41t73 51t54.5 71.5t19 92.5 q0 83 -48 127.5t-139 44.5q-106 0 -172.5 -58.5t-66.5 -152.5z" />
<glyph unicode="9" horiz-adv-x="958" d="M47 -123l2 17q514 165 647 495l-10 12q-139 -92 -264 -92q-138 0 -225.5 89.5t-87.5 224.5q0 50 11 102t40 109.5t73.5 101.5t118 73t166.5 29q178 0 271.5 -102.5t93.5 -280.5q0 -89 -21.5 -178.5t-74 -186.5t-131.5 -182.5t-202.5 -165.5t-279.5 -137h-10zM248 639 q0 -103 52.5 -159t150.5 -56q152 0 284 123q6 49 6 96q0 131 -51.5 206t-177.5 75q-75 0 -129 -26t-82 -69.5t-40.5 -90.5t-12.5 -99z" />
<glyph unicode=":" horiz-adv-x="468" d="M96 80q0 42 25 67t67 25q41 0 63.5 -23t22.5 -63q0 -43 -24.5 -69.5t-65.5 -26.5t-64.5 24.5t-23.5 65.5zM164 633q0 41 25.5 66.5t68.5 25.5q40 0 62 -23t22 -63q0 -43 -24.5 -68.5t-65.5 -25.5t-64.5 23.5t-23.5 64.5z" />
<glyph unicode=";" horiz-adv-x="468" d="M41 -170q113 90 113 180q0 52 -64 94v17q54 35 107 51q86 -55 86 -135q0 -129 -189 -268l-53 49v12zM162 633q0 41 25.5 66.5t68.5 25.5q40 0 62 -23t22 -63q0 -43 -24.5 -68.5t-65.5 -25.5t-64.5 23.5t-23.5 64.5z" />
<glyph unicode="&#x3c;" horiz-adv-x="1019" d="M70 479l16 127l14 17l820 325l24 -90l-8 -14l-737 -293v-10l669 -275l-34 -88l-19 -12z" />
<glyph unicode="=" horiz-adv-x="978" d="M57 332l11 96h831l12 -12l-8 -97h-833zM100 670l9 96h833l12 -12l-10 -97h-833z" />
<glyph unicode="&#x3e;" horiz-adv-x="1030" d="M106 266l742 275v10l-666 293l-6 14l45 90l742 -325l12 -17l-14 -127l-826 -313l-14 12z" />
<glyph unicode="?" horiz-adv-x="677" d="M160 80q0 42 25 67t67 25q40 0 63 -23t23 -63q0 -43 -24.5 -69.5t-65.5 -26.5q-42 0 -65 24t-23 66zM207 440l12 234l12 20l211 119q154 85 154 213q0 191 -379 215l-10 16l41 86l18 11q228 -13 350.5 -90.5t122.5 -206.5q0 -86 -54 -163t-153 -136l-186 -113l-4 -8 l-14 -199l-111 -12z" />
<glyph unicode="@" horiz-adv-x="1685" d="M74 383q0 254 106.5 451.5t302.5 308t451 110.5q313 0 500.5 -176.5t187.5 -468.5q0 -286 -178.5 -444t-511.5 -172l61 434h-18q-162 -276 -338 -440h-29q-153 89 -153 321q0 110 31 216t90 196t153 152.5t211 80.5h10l131 -45l90 45l21 -10l-102 -719l-7 -119 q206 26 319.5 156.5t113.5 343.5q0 251 -161 400.5t-435 146.5q-218 -2 -386.5 -98t-260 -265.5t-91.5 -384.5q0 -333 213.5 -522.5t573.5 -189.5l4 -17l-49 -77q-254 4 -445.5 98.5t-298 272t-106.5 415.5zM586 344q0 -56 6 -97t16.5 -62t21 -30.5t21.5 -9.5q13 0 40 23 t66.5 71.5t83.5 114.5t96 162.5t99 204.5l2 12l2 55l-127 46q-100 -1 -175.5 -69t-113.5 -177.5t-38 -243.5z" />
<glyph unicode="A" horiz-adv-x="1122" d="M-29 0l623 1311h176l254 -1311h-156l-12 127l-43 235l-278 5l-252 -5l-107 -227l-51 -135h-154zM344 494l217 -2l227 2l-122 657h-15z" />
<glyph unicode="B" horiz-adv-x="1048" d="M129 0l59 395l107 916h2l334 4q158 0 245 -70.5t87 -204.5q0 -127 -60 -218.5t-170 -137.5q232 -68 232 -272q0 -205 -140.5 -312.5t-416.5 -107.5q-176 0 -277 8h-2zM297 127q76 -6 145 -6q175 0 270 73.5t95 208.5q0 181 -213 205l-242 -2l-26 -198zM371 737l215 -6 q219 51 219 283q0 88 -51.5 130t-159.5 42h-160z" />
<glyph unicode="C" horiz-adv-x="1024" d="M96 522q0 376 169.5 588.5t471.5 212.5q197 0 334 -100l-49 -142l-16 -4q-118 115 -287 115q-220 0 -341.5 -168.5t-121.5 -478.5q0 -206 84 -316t240 -110q180 0 342 125l18 -11l-33 -145q-175 -102 -352 -102q-219 0 -339 140.5t-120 395.5z" />
<glyph unicode="D" horiz-adv-x="1269" d="M129 0l59 395l107 916h2l436 10q235 0 364.5 -133.5t129.5 -378.5q0 -384 -178 -602.5t-504 -218.5q-202 0 -414 12h-2zM297 129q188 -12 278 -12q234 0 362 171t128 492q0 205 -88 308.5t-260 103.5q-137 0 -285 -8l-106 -776z" />
<glyph unicode="E" horiz-adv-x="944" d="M129 0l59 395l107 916h698l6 -15l-26 -120l-291 8l-252 -4l-57 -443l235 -4l205 6l10 -14l-28 -119l-217 4l-224 -2l-26 -200l-29 -277l250 -4l297 8l6 -14l-27 -121h-696z" />
<glyph unicode="F" horiz-adv-x="849" d="M129 0l59 395l107 916h661l11 -15l-33 -122l-281 10l-223 -4l-61 -467l211 -4l204 4l9 -15l-29 -118l-215 6l-197 -2l-24 -176l-43 -408h-156z" />
<glyph unicode="G" horiz-adv-x="1177" d="M92 508q0 389 180 602t508 213q198 0 367 -94l-51 -146l-19 -4q-87 60 -161.5 86.5t-161.5 26.5q-246 0 -375 -171t-129 -499q0 -206 86 -304.5t266 -98.5q106 0 258 49l27 160l18 184l146 12l-25 -176l-29 -285q-120 -41 -210.5 -59t-194.5 -18q-246 0 -373 136.5 t-127 385.5z" />
<glyph unicode="H" horiz-adv-x="1337" d="M129 0l59 395l105 916h156l-80 -580l331 -6l336 6l66 580h155l-120 -903l-43 -408h-154l57 395l23 201l-348 6l-320 -6l-26 -188l-41 -408h-156z" />
<glyph unicode="I" horiz-adv-x="530" d="M129 0l59 395l105 916h156l-123 -903l-41 -408h-156z" />
<glyph unicode="J" horiz-adv-x="608" d="M-63 -121l2 19q147 77 214.5 153.5t82.5 190.5l22 178l88 766l-244 -2l-14 14l25 113h403l-119 -877l-18 -192q-20 -154 -109 -255.5t-284 -193.5z" />
<glyph unicode="K" horiz-adv-x="1064" d="M127 0l61 395l105 916h156l-123 -903l-43 -408h-156zM389 688l2 12l481 500l93 111h174l-584 -619q202 -334 459 -659l-6 -19q-69 -20 -150 -32l-14 10q-284 401 -455 696z" />
<glyph unicode="L" horiz-adv-x="811" d="M125 0l59 395l105 916h155l-120 -903l-31 -277h465l6 -16l-27 -115h-612z" />
<glyph unicode="M" horiz-adv-x="1542" d="M63 0l295 1311h174l41 -199l175 -760h14l383 772l86 187h174l-45 -1311h-137l22 399l17 668h-13l-463 -915h-129l-217 915h-14l-145 -655l-86 -412h-132z" />
<glyph unicode="N" horiz-adv-x="1337" d="M129 0l57 389l111 922h160l514 -1065h12l131 1059l146 10l-127 -932l-43 -383h-160l-514 1065h-15l-79 -635l-48 -430h-145z" />
<glyph unicode="O" horiz-adv-x="1251" d="M96 522q0 378 166.5 590.5t474.5 212.5q224 0 347.5 -137t123.5 -387q0 -382 -168.5 -599.5t-476.5 -217.5q-220 0 -343.5 141.5t-123.5 396.5zM254 532q0 -419 324 -419q233 0 351 171.5t118 497.5q0 414 -328 414q-233 0 -349 -170t-116 -494z" />
<glyph unicode="P" horiz-adv-x="1019" d="M129 0l59 395l107 916h2l360 4q164 0 258.5 -86.5t94.5 -253.5q0 -225 -142 -367.5t-381 -142.5h-151l-8 -57l-43 -408h-156zM352 594l223 -4q124 17 200.5 116.5t76.5 247.5q0 112 -54.5 170t-174.5 64l-191 -6z" />
<glyph unicode="Q" horiz-adv-x="1245" d="M96 522q0 378 166.5 590.5t474.5 212.5q224 0 347.5 -137t123.5 -387q0 -317 -118 -523.5t-338 -269.5q271 -212 626 -274l2 -23q-35 -65 -65 -98l-15 -4q-197 44 -376 140.5t-322 234.5h-39q-220 0 -343.5 141.5t-123.5 396.5zM254 532q0 -419 324 -419q233 0 351 171.5 t118 497.5q0 414 -328 414q-233 0 -349 -170t-116 -494z" />
<glyph unicode="R" horiz-adv-x="1083" d="M129 0l59 395l107 916h2l365 4q165 0 257.5 -83.5t92.5 -236.5q0 -157 -83.5 -278.5t-232.5 -186.5q111 -233 265 -493l-5 -19q-73 -28 -145 -36l-16 14q-133 257 -230 496h-227l-12 -84l-41 -408h-156zM354 623l236 -7q128 38 195 128.5t67 226.5q0 205 -229 217 l-193 -6z" />
<glyph unicode="S" horiz-adv-x="923" d="M39 78l39 158l20 8q60 -66 139 -98.5t158 -32.5q121 0 199 66.5t78 160.5q0 52 -27 96t-71 77t-96.5 65t-105 67.5t-96.5 76t-71 100t-27 130.5q0 157 123.5 264t308.5 107q150 0 289 -63l-43 -146l-29 -8q-107 90 -237 90q-117 0 -189.5 -65t-72.5 -152 q0 -50 27.5 -92.5t71.5 -75.5t97.5 -65t106.5 -68t97 -77.5t71.5 -101t27.5 -130.5q0 -161 -128 -272t-320 -111q-85 0 -175.5 24t-164.5 68z" />
<glyph unicode="T" horiz-adv-x="956" d="M135 1192l29 119h846l8 -15l-29 -118l-213 10h-129l-104 -780l-43 -408h-154l60 395l88 793h-125l-224 -10z" />
<glyph unicode="U" horiz-adv-x="1222" d="M141 369q0 51 9 110l24 178l80 654h149l-108 -813q-6 -49 -6 -92q0 -140 70.5 -211.5t207.5 -71.5q159 0 252 89.5t115 266.5l94 832h154l-88 -666l-19 -149q-25 -244 -158 -377t-360 -133q-195 0 -305.5 100t-110.5 283z" />
<glyph unicode="V" horiz-adv-x="1093" d="M133 1311h158l12 -129l193 -1022h10l479 1016l49 135h152l-619 -1311h-178z" />
<glyph unicode="W" horiz-adv-x="1738" d="M145 1311h154l4 -121l182 -1018h15l368 809l-65 330h160l12 -135l182 -1004h14l465 1008l45 131h146l-613 -1311h-157l-148 774h-14l-352 -774h-162z" />
<glyph unicode="X" horiz-adv-x="1148" d="M-8 0l506 672l-320 639h178l39 -101l217 -428l324 428l63 101h166l-471 -637l332 -674h-178l-39 104l-236 459l-356 -469l-61 -94h-164z" />
<glyph unicode="Y" horiz-adv-x="1028" d="M135 1311h162l14 -72l201 -596h16l371 592l39 76h168l-539 -834l-14 -94l-41 -383h-156l60 383l10 94z" />
<glyph unicode="Z" horiz-adv-x="1030" d="M6 -6l14 115l840 1075h-487l-185 -13l-8 11l31 131l750 -2l98 2l-15 -115l-837 -1073h520l184 14l7 -12l-27 -131l-225 4h-549z" />
<glyph unicode="[" horiz-adv-x="589" d="M98 -246l103 776l88 775l364 20l9 -12l-11 -74l-248 -22l-167 -1375l241 -22l-8 -76l-12 -10z" />
<glyph unicode="\" horiz-adv-x="595" d="M61 1370l15 19h104l420 -1604l-12 -16h-107z" />
<glyph unicode="]" horiz-adv-x="589" d="M-55 -254l10 74l248 24l168 1375l-242 20l8 76l13 10l356 -20l-100 -775l-89 -776l-364 -20z" />
<glyph unicode="^" horiz-adv-x="866" d="M18 264l412 733l19 9h129l221 -734l-13 -16l-92 -20l-194 653h-11l-370 -649l-19 -11z" />
<glyph unicode="_" horiz-adv-x="923" d="M-121 -270l21 90h962l10 -10l-20 -93h-963z" />
<glyph unicode="`" horiz-adv-x="798" d="M289 1341l57 80l16 2q147 -142 334 -297l-43 -61l-16 -2q-149 105 -346 260z" />
<glyph unicode="a" d="M68 307q0 109 30.5 214.5t88.5 195.5t151.5 153.5t208.5 81.5h10l127 -47l98 49l19 -12l-101 -719l-10 -217l-155 -14l59 420h-21q-148 -262 -321 -426h-29q-155 88 -155 321zM207 346q0 -71 10 -116.5t22.5 -60.5t26.5 -15q18 0 56 37t87.5 104t111.5 180t118 246l2 12 l2 49l-127 45q-95 0 -166 -66t-107 -174.5t-36 -240.5z" />
<glyph unicode="b" horiz-adv-x="903" d="M102 35l168 1194l4 198l156 15l-129 -916h23q142 253 321 426h29q155 -91 155 -321q0 -110 -30.5 -215.5t-88.5 -196t-152 -153t-210 -80.5h-8l-133 30zM256 143l123 -34q96 0 168 66.5t108.5 175.5t36.5 241q0 71 -10 116t-23 59.5t-28 14.5q-17 0 -54.5 -36.5 t-87 -102.5t-111.5 -177.5t-118 -242.5z" />
<glyph unicode="c" horiz-adv-x="684" d="M70 324q0 104 17.5 196.5t55 171.5t93 136t135 89.5t176.5 32.5l131 -41l12 -22l-41 -121l-33 -6q-66 71 -137 71q-122 0 -194 -129t-72 -352q0 -127 29 -181t92 -54q112 0 209 186h22l49 -70q-64 -108 -131.5 -163t-160.5 -82h-25q-80 14 -127 46.5t-73.5 103.5 t-26.5 188z" />
<glyph unicode="d" horiz-adv-x="903" d="M66 307q0 109 31 214.5t89 196t152.5 153.5t210.5 81h10l109 -39l45 316l6 198l155 15l-169 -1219l-11 -217l-155 -14l59 420h-20q-149 -258 -326 -426h-31q-155 88 -155 321zM203 346q0 -71 10.5 -116.5t24 -60.5t28.5 -15q17 0 54.5 36.5t87.5 102.5t113 178t120 244 l8 65l-129 47q-97 0 -170 -66t-110 -174.5t-37 -240.5z" />
<glyph unicode="e" horiz-adv-x="765" d="M70 315q0 180 57 323.5t161 227t238 88.5l19 -2q174 -25 174 -182q0 -240 -502 -412q0 -127 31.5 -185t97.5 -58q67 0 132.5 53t111.5 139l24 -2l54 -72q-143 -205 -322 -247h-24q-252 20 -252 329zM223 473q176 57 267.5 130t91.5 157t-95 84q-102 0 -173.5 -101.5 t-90.5 -269.5z" />
<glyph unicode="f" horiz-adv-x="573" d="M115 829l12 93h154l20 139q25 188 116.5 284.5t260.5 96.5l186 -29l6 -14l-41 -111l-22 -4q-79 45 -164 45q-83 0 -138.5 -59t-68.5 -170l-24 -178h221l12 -17l-14 -86h-232l-55 -411l-63 -437l-9 -219l-155 -12l90 649l59 430h-141z" />
<glyph unicode="g" horiz-adv-x="903" d="M-115 -119l6 17l289 180l2 18q-84 75 -84 244q0 110 29.5 211t84.5 184.5t142.5 140.5t196.5 74h10l127 -45l96 49l21 -12l-100 -711l-17 -153q-32 -225 -164 -354.5t-311 -129.5q-131 0 -217 75t-111 212zM49 -141q2 -56 55.5 -102t141.5 -46q117 0 197.5 84t103.5 242 l53 393h-20q-145 -254 -304 -381l-208 -155q-19 -16 -19 -35zM236 391q0 -43 4 -78t10.5 -56.5t14.5 -36.5t15 -21t13 -6q20 0 70 57.5t126.5 181t149.5 277.5l4 26l4 47l-125 45q-91 0 -157 -60t-97.5 -157.5t-31.5 -218.5z" />
<glyph unicode="h" horiz-adv-x="960" d="M94 -8l176 1237l4 198l156 15l-133 -955h18q101 176 184.5 286t172.5 179h22q71 -16 115 -62.5t43 -115.5l-2 -26l-84 -527l-12 -215l-158 -14l113 700l2 27q0 63 -43 63q-59 0 -167.5 -149.5t-240.5 -425.5l-10 -201z" />
<glyph unicode="i" horiz-adv-x="446" d="M90 -8l107 743l8 199l151 14l-102 -725l-8 -217zM227 1262q0 41 26 66.5t69 25.5q40 0 62 -23.5t22 -64.5q0 -43 -25 -69t-66 -26t-64.5 24.5t-23.5 66.5z" />
<glyph unicode="j" horiz-adv-x="475" d="M-88 -328l2 19q102 67 148 140.5t61 197.5l100 704l4 86h-153l-11 10l13 93h145l154 20l6 -4l-100 -717l-19 -184q-22 -161 -88 -256.5t-211 -177.5zM246 1262q0 41 25.5 66.5t68.5 25.5q40 0 62 -23.5t22 -64.5q0 -43 -24.5 -69t-65.5 -26t-64.5 24.5t-23.5 66.5z" />
<glyph unicode="k" horiz-adv-x="946" d="M96 -8l174 1237l6 198l156 15l-133 -942h20q115 179 200.5 284.5t174.5 163.5l31 2q78 -16 123 -65.5t45 -134.5q0 -198 -297 -377q140 -229 235 -359l-8 -14l-127 -25l-14 9q-96 145 -221 381l4 26q278 173 278 322q0 69 -49 69q-68 0 -180.5 -145.5t-255.5 -441.5 l-6 -189z" />
<glyph unicode="l" horiz-adv-x="458" d="M96 -8l174 1237l6 198l154 15l-170 -1219l-10 -217z" />
<glyph unicode="m" horiz-adv-x="1468" d="M90 -8l107 743l10 199l151 14l-65 -461h18q104 178 186.5 287.5t170.5 177.5h22q71 -16 116 -62q42 -44 42 -107v-9l-2 -26l-41 -261h18q101 176 184.5 286t172.5 179h22q71 -16 115 -62.5t43 -115.5l-2 -26l-84 -527l-12 -215l-158 -14l110 700l3 27v8q0 55 -41 55 q-60 0 -171 -153t-245 -436l-10 -187l-158 -14l113 700l2 27q0 63 -43 63q-59 0 -167.5 -149.5t-240.5 -425.5l-10 -201z" />
<glyph unicode="n" horiz-adv-x="956" d="M90 -8l107 743l10 199l151 14l-65 -461h18q104 178 186.5 287.5t170.5 177.5h22q71 -16 116 -62q42 -44 42 -107v-9l-2 -26l-84 -527l-12 -215l-158 -14l113 700l2 27q0 63 -43 63q-59 0 -167.5 -149.5t-240.5 -425.5l-10 -201z" />
<glyph unicode="o" horiz-adv-x="841" d="M74 305q0 280 122.5 458.5t331.5 190.5h17q225 -38 225 -311q0 -286 -119 -464t-329 -197l-19 2q-117 22 -173 97.5t-56 223.5zM215 307q0 -107 29 -155t96 -48q136 0 210.5 144t74.5 385q0 104 -29 150t-94 46q-138 0 -212.5 -141t-74.5 -381z" />
<glyph unicode="p" horiz-adv-x="894" d="M41 -393l158 1128l10 199l149 14l-57 -422h23q150 261 323 426h29q155 -93 155 -321q0 -110 -31 -215.5t-89 -195.5t-152.5 -153t-210.5 -81h-8l-111 24l-22 -166l-10 -223zM248 145l131 -36q96 0 168 66.5t108.5 175.5t36.5 241q0 71 -10 116t-23 59.5t-28 14.5 q-17 0 -55 -37t-87.5 -104.5t-112 -180.5t-118.5 -245z" />
<glyph unicode="q" horiz-adv-x="897" d="M66 307q0 109 30.5 214.5t88.5 196t152 153.5t210 81h8l127 -47l98 49l19 -12l-154 -1102l-10 -219l-156 -14l115 805h-23q-148 -262 -321 -426h-29q-155 88 -155 321zM205 346q0 -71 10 -116.5t22.5 -60.5t26.5 -15q13 0 39.5 22t65 69.5t81 112.5t92.5 160t95 203l2 12 l2 49l-125 45q-96 0 -167.5 -66t-107.5 -174t-36 -241z" />
<glyph unicode="r" horiz-adv-x="671" d="M94 -8l107 743l10 199l149 14l-61 -450h14q149 300 353 448l51 -4l-31 -205l-14 -6l-17 2q-66 -9 -123 -59t-125 -169.5t-149 -320.5l-8 -178z" />
<glyph unicode="s" horiz-adv-x="649" d="M-6 53l39 146l22 10q85 -117 197 -117q69 0 114.5 45t45.5 103q0 46 -32.5 85.5t-78.5 71t-92 66t-78.5 86t-32.5 115.5q0 125 104 207q100 79 239 79h10q92 -18 172 -51l-43 -139l-25 -8q-81 90 -164 90q-61 0 -105 -44t-44 -100q0 -35 23 -67.5t57 -56t74.5 -54.5 t74.5 -61.5t57 -77.5t23 -102q0 -126 -98.5 -210t-253.5 -85q-107 14 -205 69z" />
<glyph unicode="t" horiz-adv-x="663" d="M111 829l10 93h145l25 221l145 65l17 -10l-45 -276h251l13 -17l-10 -86h-271l-94 -575l-4 -37q0 -68 59 -68q74 0 183 158l24 -2l47 -64q-134 -174 -266 -241h-25q-75 12 -117.5 56.5t-41.5 117.5l2 33l88 540l8 82h-133z" />
<glyph unicode="u" horiz-adv-x="964" d="M111 168l2 27l84 528l16 215l152 12l-109 -686l-4 -43q-1 -31 11 -46t32 -15q59 0 167 149t240 426l11 199l151 14l-102 -725l-8 -217l-156 -14l64 459h-15q-100 -173 -183.5 -281.5t-172.5 -177.5h-23q-71 16 -114.5 61.5t-42.5 114.5z" />
<glyph unicode="v" horiz-adv-x="833" d="M147 934l154 14l6 -164l51 -620h15l229 401q68 117 68 193q0 66 -49 137l4 20l143 33q47 -80 47 -164q0 -107 -90 -262l-307 -522h-168z" />
<glyph unicode="w" horiz-adv-x="1396" d="M147 934l152 14l2 -125l64 -649h14l287 641l47 125h161l7 -117l63 -649h12l211 391q66 125 66 193q0 66 -49 137l6 20l141 33q47 -75 47 -164q0 -99 -88 -262l-291 -522h-159l-74 731h-16l-326 -731h-166z" />
<glyph unicode="x" d="M-2 0l358 485l-211 447l160 18l29 -82l137 -282l209 272l49 82h164l-348 -465l235 -467l-166 -20l-32 102l-144 293l-223 -295l-49 -88h-168z" />
<glyph unicode="y" horiz-adv-x="833" d="M-211 -236l16 13q85 -31 150 -31q180 0 346 242l-186 946l151 14l23 -164l96 -602h27l184 350q74 145 74 226q0 66 -49 137l6 20l141 33q47 -75 47 -164q0 -124 -100 -303l-236 -415q-145 -252 -266 -358.5t-256 -106.5q-85 0 -162 32z" />
<glyph unicode="z" horiz-adv-x="833" d="M-27 33l586 778l-285 -2l-141 -16l-12 12l31 137l14 10l131 -10l389 -2l51 29l47 -45l-579 -768l59 14q32 0 104.5 -23.5t102.5 -23.5q89 0 130.5 58.5t47.5 199.5l27 12l74 -41q-7 -186 -80.5 -279t-202.5 -93q-55 0 -156 33.5t-147 33.5q-69 0 -125 -59h-16z" />
<glyph unicode="{" horiz-adv-x="589" d="M80 494l8 79q102 17 148.5 73.5t46.5 164.5q0 29 -3.5 107t-3.5 110q0 313 267 313q44 0 102 -14l6 -12l-26 -86q-45 10 -74 10q-78 0 -115 -50.5t-37 -162.5q0 -35 4.5 -116t4.5 -111q0 -192 -166 -262l-2 -7q114 -53 114 -182q0 -54 -45 -196t-45 -203q0 -123 113 -123 q28 0 76 10l6 -84l-10 -12q-46 -14 -105 -14q-205 0 -205 192q0 73 44 223.5t44 198.5q0 128 -147 154z" />
<glyph unicode="|" horiz-adv-x="643" d="M139 -520l135 1100l129 1042l111 10l10 -10l-129 -1032l-137 -1120l-108 -7z" />
<glyph unicode="}" horiz-adv-x="589" d="M-43 -248l25 86q48 -10 75 -10q76 0 114 51.5t38 163.5q0 35 -5 115t-5 110q0 192 166 262l2 7q-113 52 -113 182q0 55 45 198t45 203q0 121 -115 121q-27 0 -75 -10l-7 84l11 12q49 14 104 14q102 0 154.5 -49t52.5 -143q0 -73 -44 -223t-44 -197q0 -130 147 -156 l-10 -79q-101 -17 -146.5 -73t-45.5 -165q0 -29 2 -106t2 -111q0 -313 -267 -313q-42 0 -100 14z" />
<glyph unicode="~" horiz-adv-x="983" d="M109 479v17l163 145l23 10q43 -7 201 -53.5t194 -46.5q31 0 129 86l21 18h18l35 -53l-2 -16l-164 -150l-20 -4q-50 5 -207.5 51.5t-190.5 46.5q-10 0 -21 -4.5t-26.5 -16t-27 -21t-34.5 -30t-38 -32.5h-19z" />
<glyph unicode="&#xa1;" horiz-adv-x="534" d="M66 -383l151 889l94 10l15 -20l-109 -875l-18 -18l-119 -6zM219 862q0 43 25 69.5t67 26.5q41 0 63.5 -24t22.5 -66t-25 -67t-67 -25q-40 0 -63 23t-23 63z" />
<glyph unicode="&#xa2;" horiz-adv-x="796" d="M86 416q0 154 39 277t126 211.5t214 117.5l53 313h76l14 -16l-47 -285h29l139 -41l12 -20l-34 -99l-29 -6q-68 60 -133 66l-125 -739q99 41 176 180l22 -2l41 -58q-59 -92 -120 -144t-136 -79l-57 -336h-76l-10 15l49 307q-55 10 -94 30t-69.5 57.5t-45 99.5t-14.5 151z M207 436q0 -234 119 -252l123 740q-114 -34 -178 -162t-64 -326z" />
<glyph unicode="&#xa3;" horiz-adv-x="854" d="M2 12l16 80q76 14 121.5 69.5t55.5 149.5l34 287h-145l-6 12l18 76h144l24 199q19 159 113.5 244t253.5 85q103 0 215 -36l-23 -117l-10 -10q-98 63 -201 63q-192 0 -219 -211l-26 -217h262l4 -10l-19 -78h-258l-34 -272q-17 -141 -109 -209v-6h342l182 12l6 -12 l-26 -115l-197 4h-510z" />
<glyph unicode="&#xa4;" horiz-adv-x="892" d="M63 424l7 18l151 127q-39 53 -39 140q0 97 78 188l-123 127l2 18l74 68h16l115 -139q73 55 170 55q92 0 152 -51l145 137h18l62 -65l-4 -19l-152 -129q37 -55 37 -137q0 -105 -76 -187l123 -129v-16l-76 -72l-16 2l-115 138q-81 -58 -170 -58q-87 0 -153 56l-146 -140 l-16 2zM274 713q0 -77 51 -129t128 -52q94 0 161.5 65.5t67.5 158.5q0 77 -50.5 128.5t-127.5 51.5q-92 0 -161 -66t-69 -157z" />
<glyph unicode="&#xa5;" horiz-adv-x="1058" d="M51 258l15 70h372l2 37l-63 155h-285l-6 12l14 68h244l-170 418h137l15 -57l190 -457h10l328 452l33 62h135l-291 -418h262l8 -8l-16 -72h-309l-117 -166l-4 -26h403l9 -11l-15 -67h-407l-29 -250h-125l37 250h-369z" />
<glyph unicode="&#xa6;" horiz-adv-x="643" d="M139 -520l105 835l106 13l12 -17l-104 -841l-106 -7zM297 762l106 860l111 10l10 -10l-106 -860l-109 -12z" />
<glyph unicode="&#xa7;" horiz-adv-x="860" d="M14 -141l33 131l19 10q104 -104 235 -104q89 0 148 49t59 110q0 35 -22 69.5t-57.5 64t-78.5 60t-86 64t-78.5 69.5t-57.5 82.5t-22 98.5q0 89 62 168t164 127q-78 78 -78 172q0 119 103.5 206t254.5 87q110 0 215 -45l-34 -129l-23 -6q-102 74 -192 74q-81 0 -136 -49 t-55 -107q0 -34 22 -67.5t57 -62.5t77.5 -59.5t84.5 -64t77 -69.5t57 -83.5t22 -99.5q0 -89 -59 -166t-162 -123q80 -83 80 -178q0 -120 -107 -208.5t-262 -88.5q-63 0 -135.5 18.5t-124.5 49.5zM242 600q0 -30 12.5 -57.5t42 -56.5t52 -47.5t69.5 -52.5t67 -50 q166 70 166 180q0 32 -12.5 61t-41.5 58.5t-51 48t-68.5 53t-65.5 49.5q-170 -78 -170 -186z" />
<glyph unicode="&#xa8;" horiz-adv-x="798" d="M246 1239q0 41 23.5 65.5t64.5 24.5q38 0 60 -23.5t22 -60.5q0 -41 -24 -66.5t-62 -25.5q-40 0 -62 23t-22 63zM571 1237q0 41 24.5 65.5t66.5 24.5q37 0 58 -23t21 -61q0 -41 -23.5 -65.5t-62.5 -24.5q-40 0 -62 22t-22 62z" />
<glyph unicode="&#xa9;" horiz-adv-x="1415" d="M117 600q0 282 166.5 453.5t439.5 171.5q272 0 438 -172t166 -453t-166 -453t-438 -172q-273 0 -439.5 171.5t-166.5 453.5zM184 600q0 -251 148 -404t391 -153q242 0 389.5 153.5t147.5 403.5t-147.5 403.5t-389.5 153.5q-243 0 -391 -153t-148 -404zM424 602 q0 168 85.5 259t244.5 91q98 0 190 -47l-22 -88l-11 -4q-68 47 -161 47q-215 0 -215 -250q0 -127 54.5 -193.5t158.5 -66.5q95 0 176 49l12 -4l-8 -90q-96 -47 -187 -47q-157 0 -237 88.5t-80 255.5z" />
<glyph unicode="&#xaa;" horiz-adv-x="638" d="M129 887q0 103 34 192.5t106.5 155.5t174.5 86h9l102 -14l78 20l14 -8l-65 -479l-11 -148l-122 -8l36 279h-16q-89 -176 -197 -281h-22q-68 27 -94.5 74t-26.5 131zM244 934q0 -46 7.5 -79t17 -45.5t18.5 -12.5q12 0 43.5 37t80 117t95.5 179l6 44l4 40l-88 17 q-85 -1 -134.5 -85.5t-49.5 -211.5z" />
<glyph unicode="&#xab;" horiz-adv-x="808" d="M76 451l4 32l342 346l67 -41v-20l-294 -305l221 -307l-6 -19l-78 -43zM412 451l4 32l342 346l67 -41v-20l-295 -305l222 -307l-7 -19l-77 -43z" />
<glyph unicode="&#xac;" horiz-adv-x="983" d="M66 502l18 96h786l11 -14l-56 -459l-96 -8l-14 12l45 360h-686z" />
<glyph unicode="&#xad;" horiz-adv-x="630" d="M57 444l13 99l503 69l13 -14l-13 -98l-503 -70z" />
<glyph unicode="&#xae;" d="M78 1069q0 166 103 267.5t270 101.5t268.5 -101.5t101.5 -267.5q0 -169 -101.5 -271t-268.5 -102q-168 0 -270.5 102.5t-102.5 270.5zM133 1069q0 -145 87.5 -233t230.5 -88q145 0 232 88t87 233q0 143 -87 229t-232 86q-143 0 -230.5 -86.5t-87.5 -228.5zM317 883l2 118 l-2 279h146q65 0 99 -30.5t34 -88.5q0 -79 -82 -119q46 -69 107 -145v-6q-25 -10 -70 -14l-8 6q-39 55 -88 141h-70v-14l2 -127h-70zM387 1083l72 -4q63 21 63 76q0 67 -80 70l-53 -2z" />
<glyph unicode="&#xaf;" horiz-adv-x="798" d="M193 1204l10 90h579l13 -10l-11 -92h-579z" />
<glyph unicode="&#xb0;" horiz-adv-x="602" d="M115 1044q0 116 87 198.5t204 82.5q99 0 163 -65.5t64 -161.5q0 -116 -86 -198.5t-203 -82.5q-99 0 -164 65t-65 162zM193 1055q0 -67 46 -114.5t113 -47.5q80 0 141.5 58t61.5 136q0 67 -46 113.5t-114 46.5q-79 0 -140.5 -57.5t-61.5 -134.5z" />
<glyph unicode="&#xb1;" horiz-adv-x="978" d="M-10 -172l8 96h833l13 -10l-10 -96h-834zM66 502l22 96h361l45 365l98 8l12 -13l-45 -360h359l12 -12l-21 -97h-364l-43 -364l-99 -8l-12 12l45 360h-360z" />
<glyph unicode="&#xb2;" horiz-adv-x="712" d="M61 666l9 77l233 236q57 59 83.5 87.5t56.5 66t41.5 64t11.5 52.5q0 37 -27 61.5t-76 24.5q-108 0 -217 -106h-14l-10 98q137 113 270 113q88 0 148.5 -45t60.5 -117q0 -63 -48.5 -132.5t-168.5 -197.5l-168 -180l2 -4h268l133 6l4 -12l-24 -103l-164 7h-340l-55 -3z" />
<glyph unicode="&#xb3;" horiz-adv-x="628" d="M115 668l4 94l10 6q94 -16 137 -16q96 0 154.5 41t58.5 108q0 107 -147 113h-84l-8 8l14 88h61q61 0 116.5 43t55.5 102q0 39 -28 61.5t-76 22.5q-79 0 -174 -65h-14l-11 88q118 80 219 80q91 0 154.5 -46t63.5 -118q0 -58 -40.5 -112t-115.5 -85l-2 -6q141 -37 141 -168 q0 -112 -98.5 -183t-253.5 -71q-76 0 -137 15z" />
<glyph unicode="&#xb4;" horiz-adv-x="798" d="M289 1126q190 158 332 297l18 -2l57 -80l-4 -18q-212 -168 -344 -260l-16 2z" />
<glyph unicode="&#xb5;" horiz-adv-x="983" d="M47 -397l158 1132l8 199l145 12l-98 -717l-4 -24q3 -55 47 -55q61 0 174.5 156.5t249.5 447.5l10 180l144 12l-101 -723l-10 -217l-147 -14l65 471h-16q-106 -180 -193 -292t-178 -181h-22q-30 7 -50 18l-24 -168l-10 -223z" />
<glyph unicode="&#xb6;" horiz-adv-x="991" d="M133 854q0 213 138.5 335t375.5 122h379l10 -15l-24 -106h-152l-106 -819l-13 -107q-18 -136 -103.5 -235.5t-266.5 -184.5l-39 70l4 18q125 71 187.5 148t72.5 174l12 92l101 846h-121q-139 -12 -217 -99t-78 -229q0 -113 62 -190t182 -111l-62 -90q-165 34 -253.5 131 t-88.5 250z" />
<glyph unicode="&#xb7;" horiz-adv-x="471" d="M150 500q0 41 25.5 66.5t68.5 25.5q40 0 62 -23.5t22 -64.5q0 -43 -24.5 -68.5t-65.5 -25.5t-64.5 24.5t-23.5 65.5z" />
<glyph unicode="&#xb8;" horiz-adv-x="798" d="M150 -330l16 78l10 4q53 -63 113 -63q30 0 48.5 14t18.5 41q0 19 -11 30t-34 21l-96 60l49 184h92l-43 -145l68 -41q78 -42 78 -113q0 -60 -45.5 -96.5t-116.5 -36.5q-88 0 -147 63z" />
<glyph unicode="&#xb9;" horiz-adv-x="526" d="M127 1262l12 100l307 82l15 -14l-64 -496l-30 -272h-129l34 258l45 378l-182 -45z" />
<glyph unicode="&#xba;" horiz-adv-x="606" d="M127 897q0 186 84 304t225 124h15q155 -25 155 -209q0 -193 -82.5 -311t-226.5 -125l-12 2q-158 16 -158 215zM244 897q0 -67 17.5 -97t57.5 -30q82 0 125 89t43 247q0 67 -15.5 97t-53.5 30q-84 0 -129 -90.5t-45 -245.5z" />
<glyph unicode="&#xbb;" horiz-adv-x="798" d="M-12 137l2 21l293 305l-220 307l7 18l77 43l256 -356l-4 -33l-342 -346zM326 137v21l295 305l-222 307l7 18l77 43l256 -356l-4 -33l-340 -346z" />
<glyph unicode="&#xbc;" horiz-adv-x="1429" d="M20 -123l1156 1509l61 -38l8 -27l-1155 -1507l-61 39zM111 1141l12 100l307 82l14 -14l-63 -496l-31 -272h-129l35 258l45 379l-182 -45zM737 219l11 82l401 471h119l-60 -463h123l8 -12l-18 -90l-123 4l-18 -201l-9 -10l-104 -6l-6 8l29 209h-244l-101 -4zM866 309h238 l41 316h-10z" />
<glyph unicode="&#xbd;" horiz-adv-x="1454" d="M20 -123l1156 1509l61 -38l8 -27l-1155 -1507l-61 39zM111 1141l12 100l307 82l14 -14l-63 -496l-31 -272h-129l35 258l45 379l-182 -45zM766 4l8 78l234 235q106 110 149 166.5t43 104.5q0 37 -26.5 61.5t-75.5 24.5q-107 0 -217 -107h-15l-10 99q136 112 270 112 q88 0 148.5 -45t60.5 -117q0 -63 -48 -131.5t-169 -197.5l-168 -181l2 -4h269l133 7l4 -13l-25 -102l-164 6h-340l-55 -2z" />
<glyph unicode="&#xbe;" horiz-adv-x="1505" d="M82 547l4 94l10 6q94 -16 137 -16q96 0 154.5 41t58.5 108q0 107 -147 113h-84l-8 8l14 88h62q61 0 116.5 43.5t55.5 102.5q0 39 -28.5 61.5t-76.5 22.5q-77 0 -174 -66h-14l-10 88q118 80 219 80q91 0 154 -46t63 -118q0 -58 -40.5 -111.5t-115.5 -84.5l-2 -7 q141 -38 141 -168q0 -112 -98.5 -183t-253.5 -71q-75 0 -137 15zM96 -123l1155 1509l62 -38l8 -27l-1155 -1507l-62 39zM813 219l10 82l402 471h118l-59 -463h123l8 -12l-18 -90l-123 4l-19 -201l-8 -10l-104 -6l-6 8l28 209h-243l-101 -4zM942 309h238l41 316h-11z" />
<glyph unicode="&#xbf;" horiz-adv-x="677" d="M-53 -109q0 86 54 163t153 136l186 113l4 8l14 199l111 12l10 -14l-12 -234l-12 -20l-211 -119q-154 -85 -154 -213q0 -191 379 -215l10 -16l-41 -86l-18 -11q-228 13 -350.5 90.5t-122.5 206.5zM348 862q0 43 24.5 69.5t65.5 26.5q42 0 65 -24t23 -66t-25 -67t-67 -25 q-40 0 -63 23t-23 63z" />
<glyph unicode="&#xc0;" horiz-adv-x="1122" d="M-27 0l623 1311h176l254 -1311h-156l-14 127l-43 235l-278 5l-252 -5l-107 -227l-49 -135h-154zM344 494l219 -2l225 2l-120 657h-15zM487 1673l39 90l19 4q150 -88 391 -208l-29 -70l-18 -8q-231 97 -395 176z" />
<glyph unicode="&#xc1;" horiz-adv-x="1122" d="M-27 0l623 1311h176l254 -1311h-156l-14 127l-43 235l-278 5l-252 -5l-107 -227l-49 -135h-154zM344 494l219 -2l225 2l-120 657h-15zM508 1552q209 104 391 211l16 -4l41 -90l-6 -18q-89 -43 -395 -176l-18 8z" />
<glyph unicode="&#xc2;" horiz-adv-x="1122" d="M-27 0l623 1311h176l254 -1311h-156l-14 127l-43 235l-278 5l-252 -5l-107 -227l-49 -135h-154zM344 494l219 -2l225 2l-120 657h-15zM453 1567q108 66 256 182h45q94 -90 217 -182l-41 -68h-17q-86 57 -190 137q-146 -90 -227 -137h-19z" />
<glyph unicode="&#xc3;" horiz-adv-x="1122" d="M-27 0l623 1311h176l254 -1311h-156l-14 127l-43 235l-278 5l-252 -5l-107 -227l-49 -135h-154zM344 494l219 -2l225 2l-120 657h-15zM389 1556v15l125 137l18 6q43 -5 167.5 -39.5t150.5 -34.5q9 0 18.5 4t22 15t21 19t27 27.5t28.5 29.5h14l49 -52v-14l-125 -137 l-18 -8q-41 5 -166 40t-152 35q-9 0 -18.5 -4.5t-21 -14.5t-20.5 -19t-26 -27t-28 -29h-19z" />
<glyph unicode="&#xc4;" horiz-adv-x="1122" d="M-27 0l623 1311h176l254 -1311h-156l-14 127l-43 235l-278 5l-252 -5l-107 -227l-49 -135h-154zM344 494l219 -2l225 2l-120 657h-15zM463 1612q0 41 23.5 65.5t64.5 24.5q38 0 60 -23.5t22 -60.5q0 -41 -24 -66.5t-62 -25.5q-40 0 -62 23t-22 63zM788 1610q0 42 24 66 t67 24q37 0 58 -23t21 -61q0 -41 -23.5 -65.5t-62.5 -24.5q-40 0 -62 22t-22 62z" />
<glyph unicode="&#xc5;" horiz-adv-x="1122" d="M-27 0l623 1311h176l254 -1311h-156l-14 127l-43 235l-278 5l-252 -5l-107 -227l-49 -135h-154zM344 494l219 -2l225 2l-120 657h-15zM543 1628q0 76 45.5 122t124.5 46q80 0 124 -46t44 -118q0 -79 -48.5 -124.5t-123.5 -45.5q-73 0 -119.5 44.5t-46.5 121.5zM618 1630 q0 -45 26.5 -69.5t68.5 -24.5q41 0 66.5 23.5t25.5 66.5q0 41 -24 66.5t-70 25.5q-45 0 -69 -23t-24 -65z" />
<glyph unicode="&#xc6;" horiz-adv-x="1568" d="M-88 0l823 1311h721l8 -15l-28 -120l-314 8h-188l6 -496l430 92l10 -12l-4 -113l-436 -88l6 -442h221l320 10l8 -14l-27 -121h-673l4 127l-6 408l-474 -109l-182 -291l-65 -135h-160zM412 573l379 82l-9 496h-10z" />
<glyph unicode="&#xc7;" horiz-adv-x="1024" d="M96 522q0 376 169.5 588.5t471.5 212.5q196 0 336 -100l-49 -142l-18 -4q-115 115 -287 115q-219 0 -340 -169t-121 -478q0 -207 83 -316.5t239 -109.5q182 0 344 125l16 -11l-31 -145q-146 -84 -282 -98l-29 -94l68 -41q77 -42 77 -113q0 -60 -45 -96.5t-116 -36.5 q-89 0 -148 63l17 78l10 4q27 -32 52.5 -47.5t59.5 -15.5q31 0 49.5 14t18.5 41q0 19 -11 30t-34 21l-96 60l35 129q-211 7 -325 147t-114 389z" />
<glyph unicode="&#xc8;" horiz-adv-x="944" d="M129 0l59 395l107 916h698l6 -15l-26 -120l-291 8l-252 -4l-57 -443l235 -4l205 6l10 -14l-28 -119l-217 4l-224 -2l-26 -200l-31 -277l252 -4l297 8l6 -14l-27 -121h-696zM449 1673l38 90l19 4q150 -88 391 -208l-29 -70l-18 -8q-231 97 -395 176z" />
<glyph unicode="&#xc9;" horiz-adv-x="944" d="M129 0l59 395l107 916h698l6 -15l-26 -120l-291 8l-252 -4l-57 -443l235 -4l205 6l10 -14l-28 -119l-217 4l-224 -2l-26 -200l-31 -277l252 -4l297 8l6 -14l-27 -121h-696zM469 1552q209 104 391 211l17 -4l41 -90l-7 -18q-89 -43 -395 -176l-18 8z" />
<glyph unicode="&#xca;" horiz-adv-x="944" d="M129 0l59 395l107 916h698l6 -15l-26 -120l-291 8l-252 -4l-57 -443l235 -4l205 6l10 -14l-28 -119l-217 4l-224 -2l-26 -200l-31 -277l252 -4l297 8l6 -14l-27 -121h-696zM414 1567q108 66 256 182h45q94 -90 217 -182l-41 -68h-17q-86 57 -190 137q-146 -90 -227 -137 h-19z" />
<glyph unicode="&#xcb;" horiz-adv-x="944" d="M129 0l59 395l107 916h698l6 -15l-26 -120l-291 8l-252 -4l-57 -443l235 -4l205 6l10 -14l-28 -119l-217 4l-224 -2l-26 -200l-31 -277l252 -4l297 8l6 -14l-27 -121h-696zM424 1612q0 41 23.5 65.5t64.5 24.5q38 0 60 -23.5t22 -60.5q0 -41 -24 -66.5t-62 -25.5 q-40 0 -62 23t-22 63zM750 1610q0 42 24 66t66 24q37 0 58.5 -23t21.5 -61q0 -41 -23.5 -65.5t-62.5 -24.5q-40 0 -62 22t-22 62z" />
<glyph unicode="&#xcc;" horiz-adv-x="530" d="M129 0l57 395l107 916h153l-120 -903l-43 -408h-154zM182 1673l39 90l19 4q150 -88 391 -208l-29 -70l-18 -8q-239 100 -396 176z" />
<glyph unicode="&#xcd;" horiz-adv-x="530" d="M129 0l57 395l107 916h153l-120 -903l-43 -408h-154zM205 1552q209 104 391 211l16 -4l41 -90l-6 -18q-89 -43 -395 -176l-19 8z" />
<glyph unicode="&#xce;" horiz-adv-x="530" d="M129 0l57 395l107 916h153l-120 -903l-43 -408h-154zM150 1567q108 66 256 182h45q94 -90 217 -182l-41 -68h-17q-86 57 -190 137q-146 -90 -227 -137h-19z" />
<glyph unicode="&#xd0;" horiz-adv-x="1318" d="M63 623l13 98h198l68 590h2l436 10q237 0 366.5 -133.5t129.5 -378.5q0 -384 -178.5 -602.5t-505.5 -218.5q-202 0 -414 12l60 395l24 215h-192zM346 129q184 -12 277 -12q234 0 362.5 171t128.5 492q0 412 -350 412q-131 0 -283 -8l-63 -463h317l6 -14l-10 -97h-330 l-26 -202z" />
<glyph unicode="&#xd1;" horiz-adv-x="1337" d="M129 0l57 389l111 922h160l514 -1065h12l131 1059l146 10l-127 -932l-43 -383h-160l-516 1065h-13l-79 -635l-50 -430h-143zM492 1556v15l124 137l19 6q43 -5 167 -39.5t150 -34.5q9 0 18.5 4t22 15t21 19t27 27.5t28.5 29.5h14l50 -52v-14l-125 -137l-19 -8 q-41 5 -165.5 40t-151.5 35q-9 0 -18.5 -4.5t-21.5 -14.5t-21 -19t-26 -27t-28 -29h-18z" />
<glyph unicode="&#xd2;" horiz-adv-x="1251" d="M96 522q0 378 167 590.5t474 212.5q224 0 347.5 -137t123.5 -387q0 -382 -168 -599.5t-475 -217.5q-222 0 -345.5 141.5t-123.5 396.5zM254 532q0 -419 324 -419q233 0 351 171.5t118 497.5q0 414 -328 414q-233 0 -349 -170t-116 -494zM545 1673l39 90l18 4 q150 -88 391 -208l-28 -70l-19 -8q-231 97 -395 176z" />
<glyph unicode="&#xd3;" horiz-adv-x="1251" d="M96 522q0 378 167 590.5t474 212.5q224 0 347.5 -137t123.5 -387q0 -382 -168 -599.5t-475 -217.5q-222 0 -345.5 141.5t-123.5 396.5zM254 532q0 -419 324 -419q233 0 351 171.5t118 497.5q0 414 -328 414q-233 0 -349 -170t-116 -494zM565 1552q209 104 391 211l17 -4 l41 -90l-6 -18q-79 -38 -396 -176l-18 8z" />
<glyph unicode="&#xd4;" horiz-adv-x="1251" d="M96 522q0 378 167 590.5t474 212.5q224 0 347.5 -137t123.5 -387q0 -382 -168 -599.5t-475 -217.5q-222 0 -345.5 141.5t-123.5 396.5zM254 532q0 -419 324 -419q233 0 351 171.5t118 497.5q0 414 -328 414q-233 0 -349 -170t-116 -494zM510 1567q108 66 256 182h45 q94 -90 217 -182l-41 -68h-16q-93 62 -191 137q-146 -90 -227 -137h-18z" />
<glyph unicode="&#xd5;" horiz-adv-x="1251" d="M96 522q0 378 167 590.5t474 212.5q224 0 347.5 -137t123.5 -387q0 -382 -168 -599.5t-475 -217.5q-222 0 -345.5 141.5t-123.5 396.5zM254 532q0 -419 324 -419q233 0 351 171.5t118 497.5q0 414 -328 414q-233 0 -349 -170t-116 -494zM446 1556v15l125 137l19 6 q43 -5 167 -39.5t150 -34.5q9 0 18.5 4t22 15t21 19t27 27.5t28.5 29.5h14l49 -52v-14l-124 -137l-19 -8q-41 5 -165.5 40t-151.5 35q-9 0 -18.5 -4.5t-21.5 -14.5t-21 -19t-26 -27t-28 -29h-18z" />
<glyph unicode="&#xd7;" horiz-adv-x="985" d="M135 272l2 15l289 258l-225 254l2 18l80 62l229 -258l287 258l67 -62l-2 -18l-284 -254l221 -256l-2 -17l-82 -63l-225 256l-291 -256z" />
<glyph unicode="&#xd8;" horiz-adv-x="1253" d="M96 522q0 378 167 590.5t474 212.5q117 0 209 -39l111 193l88 -33l6 -19l-113 -196q170 -135 170 -430q0 -382 -168 -599.5t-475 -217.5q-123 0 -213 43l-133 -234l-88 33l-6 16l137 242q-166 141 -166 438zM254 532q0 -210 84 -317l539 948q-62 33 -158 33 q-233 0 -349 -170t-116 -494zM420 147q67 -34 158 -34q233 0 351 171.5t118 497.5q0 210 -84 314z" />
<glyph unicode="&#xd9;" horiz-adv-x="1222" d="M141 369q0 51 9 110l24 178l78 654h151l-108 -813q-6 -49 -6 -92q0 -283 278 -283q159 0 252 89.5t113 266.5l96 832h154l-88 -666l-19 -149q-27 -244 -159.5 -377t-358.5 -133q-195 0 -305.5 100t-110.5 283zM530 1673l39 90l19 4q150 -88 391 -208l-29 -70l-18 -8 q-231 97 -395 176z" />
<glyph unicode="&#xda;" horiz-adv-x="1222" d="M141 369q0 51 9 110l24 178l78 654h151l-108 -813q-6 -49 -6 -92q0 -283 278 -283q159 0 252 89.5t113 266.5l96 832h154l-88 -666l-19 -149q-27 -244 -159.5 -377t-358.5 -133q-195 0 -305.5 100t-110.5 283zM551 1552q209 104 391 211l16 -4l41 -90l-6 -18 q-89 -43 -395 -176l-18 8z" />
<glyph unicode="&#xdb;" horiz-adv-x="1222" d="M141 369q0 51 9 110l24 178l78 654h151l-108 -813q-6 -49 -6 -92q0 -283 278 -283q159 0 252 89.5t113 266.5l96 832h154l-88 -666l-19 -149q-27 -244 -159.5 -377t-358.5 -133q-195 0 -305.5 100t-110.5 283zM498 1567q108 66 256 182h45q94 -90 217 -182l-41 -68h-17 q-86 57 -190 137q-146 -90 -227 -137h-19z" />
<glyph unicode="&#xdc;" horiz-adv-x="1222" d="M141 369q0 51 9 110l24 178l78 654h151l-108 -813q-6 -49 -6 -92q0 -283 278 -283q159 0 252 89.5t113 266.5l96 832h154l-88 -666l-19 -149q-27 -244 -159.5 -377t-358.5 -133q-195 0 -305.5 100t-110.5 283zM508 1612q0 41 23.5 65.5t64.5 24.5q38 0 60 -23.5t22 -60.5 q0 -41 -24 -66.5t-62 -25.5q-40 0 -62 23t-22 63zM834 1610q0 42 24 66t66 24q37 0 58.5 -23t21.5 -61q0 -41 -23.5 -65.5t-62.5 -24.5q-40 0 -62 22t-22 62z" />
<glyph unicode="&#xde;" horiz-adv-x="1028" d="M131 0l57 395l109 916h152l-31 -230l217 2q166 0 259 -85t93 -253q0 -225 -141 -367t-381 -142h-156l-24 -236h-154zM324 365l229 -5q125 17 200.5 116.5t75.5 248.5q0 111 -54 168t-175 63l-199 -4l-73 -544z" />
<glyph unicode="&#xdf;" horiz-adv-x="1126" d="M115 829l14 93h152l22 159q23 173 128 267t274 94q142 0 221.5 -64.5t79.5 -183.5q0 -59 -19.5 -110t-48.5 -84.5t-63.5 -68t-63.5 -63t-48.5 -67t-19.5 -80.5q0 -37 22 -72t55 -62.5t71.5 -62t71.5 -68t55 -82.5t22 -104q0 -121 -97.5 -203t-248.5 -83q-114 11 -211 69 l33 137l21 11q89 -113 202 -113q72 0 120 44.5t48 109.5q0 39 -22 75.5t-55.5 64.5t-72 62t-71.5 66.5t-54.5 80.5t-21.5 103q0 70 26.5 127.5t64 96t75 75t64 83t26.5 100.5q0 145 -176 145q-100 0 -167 -52t-85 -151l-94 -710l-61 -437l-11 -219l-153 -12l90 649l59 430 h-143z" />
<glyph unicode="&#xe0;" d="M68 307q0 109 30.5 214.5t88.5 195.5t151.5 153.5t208.5 81.5h10l127 -45l96 47l21 -12l-103 -719l-10 -217l-153 -14l59 420h-21q-145 -256 -321 -426h-29q-155 87 -155 321zM207 346q0 -71 10 -116.5t22.5 -60.5t26.5 -15q13 0 39.5 22t64.5 69.5t80 112.5t92 160 t95 203l2 12l2 49l-125 45q-95 0 -166 -66t-107 -174.5t-36 -240.5zM322 1343l57 80l16 2q147 -142 334 -297l-43 -61l-16 -2q-149 105 -346 260z" />
<glyph unicode="&#xe1;" d="M68 307q0 109 30.5 214.5t88.5 195.5t151.5 153.5t208.5 81.5h10l127 -45l96 47l21 -12l-103 -719l-10 -217l-153 -14l59 420h-21q-145 -256 -321 -426h-29q-155 87 -155 321zM207 346q0 -71 10 -116.5t22.5 -60.5t26.5 -15q13 0 39.5 22t64.5 69.5t80 112.5t92 160 t95 203l2 12l2 49l-125 45q-95 0 -166 -66t-107 -174.5t-36 -240.5zM344 1128q190 158 332 297l18 -2l58 -80l-4 -18q-204 -161 -345 -260l-16 2z" />
<glyph unicode="&#xe2;" d="M68 307q0 109 30.5 214.5t88.5 195.5t151.5 153.5t208.5 81.5h10l127 -45l96 47l21 -12l-103 -719l-10 -217l-153 -14l59 420h-21q-145 -256 -321 -426h-29q-155 87 -155 321zM207 346q0 -71 10 -116.5t22.5 -60.5t26.5 -15q13 0 39.5 22t64.5 69.5t80 112.5t92 160 t95 203l2 12l2 49l-125 45q-95 0 -166 -66t-107 -174.5t-36 -240.5zM274 1130q116 105 279 275h47q105 -151 211 -275l-49 -61h-17q-98 100 -182 215q-92 -92 -235 -215h-19z" />
<glyph unicode="&#xe3;" d="M68 307q0 109 30.5 214.5t88.5 195.5t151.5 153.5t208.5 81.5h10l127 -45l96 47l21 -12l-103 -719l-10 -217l-153 -14l59 420h-21q-145 -256 -321 -426h-29q-155 87 -155 321zM207 346q0 -71 10 -116.5t22.5 -60.5t26.5 -15q13 0 39.5 22t64.5 69.5t80 112.5t92 160 t95 203l2 12l2 49l-125 45q-95 0 -166 -66t-107 -174.5t-36 -240.5zM223 1186v14l125 137l19 6q43 -5 167 -39t150 -34q9 0 18 4t22 15t21 18.5t27.5 27.5t28.5 29h14l49 -51v-15l-125 -137l-18 -8q-41 5 -166 40.5t-152 35.5q-9 0 -18.5 -4.5t-21 -14.5t-20.5 -19t-26 -27 t-28 -29h-19z" />
<glyph unicode="&#xe4;" d="M68 307q0 109 30.5 214.5t88.5 195.5t151.5 153.5t208.5 81.5h10l127 -45l96 47l21 -12l-103 -719l-10 -217l-153 -14l59 420h-21q-145 -256 -321 -426h-29q-155 87 -155 321zM207 346q0 -71 10 -116.5t22.5 -60.5t26.5 -15q13 0 39.5 22t64.5 69.5t80 112.5t92 160 t95 203l2 12l2 49l-125 45q-95 0 -166 -66t-107 -174.5t-36 -240.5zM297 1241q0 41 23.5 65.5t64.5 24.5q38 0 60 -23.5t22 -60.5q0 -41 -24 -66.5t-62 -25.5q-40 0 -62 23t-22 63zM623 1239q0 42 24 66t66 24q37 0 58.5 -23t21.5 -61q0 -41 -23.5 -65.5t-62.5 -24.5 q-40 0 -62 22t-22 62z" />
<glyph unicode="&#xe5;" d="M68 307q0 109 30.5 214.5t88.5 195.5t151.5 153.5t208.5 81.5h10l127 -45l96 47l21 -12l-103 -719l-10 -217l-153 -14l59 420h-21q-145 -256 -321 -426h-29q-155 87 -155 321zM207 346q0 -71 10 -116.5t22.5 -60.5t26.5 -15q13 0 39.5 22t64.5 69.5t80 112.5t92 160 t95 203l2 12l2 49l-125 45q-95 0 -166 -66t-107 -174.5t-36 -240.5zM377 1257q0 76 45.5 122t124.5 46q80 0 124 -45.5t44 -117.5q0 -79 -48.5 -124.5t-123.5 -45.5q-73 0 -119.5 44t-46.5 121zM453 1260q0 -45 26 -70t68 -25q41 0 66.5 23.5t25.5 66.5q0 42 -24 67.5 t-70 25.5q-45 0 -68.5 -23t-23.5 -65z" />
<glyph unicode="&#xe6;" horiz-adv-x="1247" d="M82 307q0 109 30.5 214t88.5 195.5t152.5 154t211.5 81.5h10l216 -80q102 76 233 82l18 -2q177 -25 177 -182q0 -240 -510 -414v-26q4 -111 37.5 -163t95.5 -52q70 0 138 53.5t110 138.5l24 -2l51 -72q-143 -205 -321 -247h-25q-137 15 -195.5 99.5t-58.5 242.5v39 q-141 -236 -299 -381h-28q-156 89 -156 321zM219 348q0 -72 11 -118t24 -61t27 -15q17 0 52.5 34t82 95.5t104.5 164.5t111 224q35 68 59 96l-155 59q-96 0 -169 -66t-110 -174t-37 -239zM715 471q180 57 273 130.5t93 158.5q0 84 -96 84q-104 0 -177 -101.5t-93 -271.5z " />
<glyph unicode="&#xe7;" horiz-adv-x="684" d="M70 324q0 104 17.5 196.5t55 171.5t93 136t135 89.5t176.5 32.5l131 -41l12 -22l-41 -121l-33 -6q-39 41 -71 56t-68 15q-121 0 -192.5 -129t-71.5 -352q0 -126 29 -180.5t90 -54.5q112 0 211 186h22l49 -70q-56 -94 -114 -147.5t-131 -81.5l-31 -106l68 -41 q77 -42 77 -113q0 -60 -45 -96.5t-116 -36.5q-89 0 -148 63l16 78l11 4q27 -32 52.5 -47.5t59.5 -15.5q31 0 49.5 14t18.5 41q0 19 -11 30t-34 21l-96 60l34 133q-107 23 -155.5 96t-48.5 238z" />
<glyph unicode="&#xe8;" horiz-adv-x="765" d="M70 315q0 180 57 323.5t161 227t238 88.5l19 -2q174 -26 174 -182q0 -241 -504 -412q0 -127 31.5 -185t97.5 -58q67 0 134 53.5t112 138.5l24 -2l52 -72q-139 -204 -320 -247h-27q-249 20 -249 329zM221 471q177 59 269 132.5t92 156.5q0 84 -95 84q-102 0 -174 -101.5 t-92 -271.5zM295 1343l57 80l17 2q153 -148 333 -297l-43 -61l-16 -2q-149 105 -346 260z" />
<glyph unicode="&#xe9;" horiz-adv-x="765" d="M70 315q0 180 57 323.5t161 227t238 88.5l19 -2q174 -26 174 -182q0 -241 -504 -412q0 -127 31.5 -185t97.5 -58q67 0 134 53.5t112 138.5l24 -2l52 -72q-139 -204 -320 -247h-27q-249 20 -249 329zM221 471q177 59 269 132.5t92 156.5q0 84 -95 84q-102 0 -174 -101.5 t-92 -271.5zM317 1128q190 158 332 297l19 -2l57 -80l-4 -18q-212 -168 -344 -260l-17 2z" />
<glyph unicode="&#xea;" horiz-adv-x="765" d="M70 315q0 180 57 323.5t161 227t238 88.5l19 -2q174 -26 174 -182q0 -241 -504 -412q0 -127 31.5 -185t97.5 -58q67 0 134 53.5t112 138.5l24 -2l52 -72q-139 -204 -320 -247h-27q-249 20 -249 329zM221 471q177 59 269 132.5t92 156.5q0 84 -95 84q-102 0 -174 -101.5 t-92 -271.5zM248 1130q108 98 278 275h47q105 -151 211 -275l-49 -61h-16q-98 100 -182 215q-86 -86 -236 -215h-18z" />
<glyph unicode="&#xeb;" horiz-adv-x="765" d="M70 315q0 180 57 323.5t161 227t238 88.5l19 -2q174 -26 174 -182q0 -241 -504 -412q0 -127 31.5 -185t97.5 -58q67 0 134 53.5t112 138.5l24 -2l52 -72q-139 -204 -320 -247h-27q-249 20 -249 329zM221 471q177 59 269 132.5t92 156.5q0 84 -95 84q-102 0 -174 -101.5 t-92 -271.5zM270 1241q0 41 23.5 65.5t64.5 24.5q38 0 60 -23.5t22 -60.5q0 -41 -24 -66.5t-62 -25.5q-40 0 -62 23t-22 63zM596 1239q0 42 24 66t66 24q37 0 58.5 -23t21.5 -61q0 -41 -23.5 -65.5t-62.5 -24.5q-40 0 -62 22t-22 62z" />
<glyph unicode="&#xec;" horiz-adv-x="446" d="M90 -8l107 743l8 199l151 14l-102 -725l-8 -217zM92 1341l58 80l16 2q147 -142 334 -297l-43 -61l-17 -2q-149 105 -346 260z" />
<glyph unicode="&#xed;" horiz-adv-x="446" d="M90 -8l107 743l8 199l151 14l-102 -725l-8 -217zM115 1126q184 152 331 297l19 -2l57 -80l-4 -18q-212 -168 -344 -260l-16 2z" />
<glyph unicode="&#xee;" horiz-adv-x="446" d="M45 1128q116 105 279 275h47q105 -151 211 -275l-50 -61h-16q-98 100 -182 215q-86 -86 -236 -215h-18zM90 -8l107 743l8 199l151 14l-102 -725l-8 -217z" />
<glyph unicode="&#xf0;" horiz-adv-x="894" d="M94 305q0 179 54.5 320.5t158 224.5t240.5 90h16q26 -4 39 -8q-51 123 -145 217l-260 -125l-13 6l-22 76l221 108q-102 79 -231 136l2 20l102 74h10q152 -70 252 -164l246 121l14 -6l25 -78l-215 -105q212 -238 209 -571q0 -283 -121 -461.5t-330 -197.5l-18 2 q-119 22 -176.5 97.5t-57.5 223.5zM231 307q0 -110 31.5 -159.5t102.5 -49.5q138 0 214 145t78 390q0 64 -10 139q-36 64 -121 64q-140 0 -217.5 -144t-77.5 -385z" />
<glyph unicode="&#xf1;" horiz-adv-x="956" d="M90 -8l107 743l10 199l149 14l-63 -461h18q104 178 186.5 287.5t170.5 177.5h22q71 -16 116 -62.5t42 -115.5l-2 -26l-84 -527l-12 -215l-158 -14l113 700l2 27q0 63 -43 63q-59 0 -167.5 -149.5t-240.5 -425.5l-10 -201zM256 1184v14l125 137l18 6q43 -5 167.5 -39 t150.5 -34q9 0 18 4t22 15t21 18.5t27.5 27.5t28.5 29h14l49 -51v-15l-125 -137l-18 -8q-41 5 -166 40.5t-152 35.5q-9 0 -18.5 -4.5t-21 -14.5t-20.5 -19t-26 -27t-28 -29h-19z" />
<glyph unicode="&#xf2;" horiz-adv-x="841" d="M74 305q0 280 122 458.5t332 190.5h17q112 -19 167.5 -94.5t55.5 -216.5q0 -286 -119 -464t-330 -197l-16 2q-117 22 -173 97.5t-56 223.5zM215 307q0 -107 29.5 -155t97.5 -48q135 0 209 144.5t74 384.5q0 104 -29 150t-94 46q-138 0 -212.5 -141t-74.5 -381zM313 1341 l58 80l16 2q147 -142 334 -297l-43 -61l-16 -2q-158 111 -347 260z" />
<glyph unicode="&#xf3;" horiz-adv-x="841" d="M74 305q0 280 122 458.5t332 190.5h17q112 -19 167.5 -94.5t55.5 -216.5q0 -286 -119 -464t-330 -197l-16 2q-117 22 -173 97.5t-56 223.5zM215 307q0 -107 29.5 -155t97.5 -48q135 0 209 144.5t74 384.5q0 104 -29 150t-94 46q-138 0 -212.5 -141t-74.5 -381zM336 1126 q190 158 332 297l18 -2l57 -80l-4 -18q-212 -168 -344 -260l-16 2z" />
<glyph unicode="&#xf4;" horiz-adv-x="841" d="M74 305q0 280 122 458.5t332 190.5h17q112 -19 167.5 -94.5t55.5 -216.5q0 -286 -119 -464t-330 -197l-16 2q-117 22 -173 97.5t-56 223.5zM215 307q0 -107 29.5 -155t97.5 -48q135 0 209 144.5t74 384.5q0 104 -29 150t-94 46q-138 0 -212.5 -141t-74.5 -381zM266 1128 q116 105 279 275h47q105 -151 211 -275l-49 -61h-17q-98 100 -182 215q-86 -86 -236 -215h-18z" />
<glyph unicode="&#xf5;" horiz-adv-x="841" d="M74 305q0 280 122 458.5t332 190.5h17q112 -19 167.5 -94.5t55.5 -216.5q0 -286 -119 -464t-330 -197l-16 2q-117 22 -173 97.5t-56 223.5zM215 307q0 -107 29.5 -155t97.5 -48q135 0 209 144.5t74 384.5q0 104 -29 150t-94 46q-138 0 -212.5 -141t-74.5 -381zM215 1184 v14l125 137l18 6q43 -5 167.5 -39t150.5 -34q9 0 18 4t22 15t21 18.5t27.5 27.5t28.5 29h14l49 -51v-15l-125 -137l-18 -8q-41 5 -166 40.5t-152 35.5q-9 0 -18.5 -4.5t-21 -14.5t-20.5 -19t-26 -27t-28 -29h-19z" />
<glyph unicode="&#xf7;" horiz-adv-x="978" d="M72 502l8 96h831l15 -12l-11 -97h-833zM369 186q0 39 23.5 63.5t64.5 24.5q38 0 59 -22.5t21 -61.5q0 -40 -23 -64t-63 -24q-38 0 -60 22t-22 62zM457 905q0 40 23 64t63 24q38 0 60 -22.5t22 -59.5q0 -41 -23.5 -65.5t-62.5 -24.5t-60.5 22.5t-21.5 61.5z" />
<glyph unicode="&#xf8;" horiz-adv-x="841" d="M45 -182l115 231q-86 80 -86 256q0 280 122 458.5t332 190.5h17q5 -1 51 -12l90 182l78 -37l10 -16l-88 -180q82 -79 82 -248q0 -286 -119 -464t-330 -197l-16 2q-38 9 -53 14l-113 -234l-86 39zM215 307q0 -71 12 -117l312 635q-20 4 -37 4q-138 0 -212.5 -141 t-74.5 -381zM305 109q25 -5 37 -5q135 0 209 144.5t74 384.5q0 61 -13 108z" />
<glyph unicode="&#xf9;" horiz-adv-x="964" d="M111 168l2 27l84 528l16 215l152 12l-107 -686l-4 -43q-3 -61 41 -61q61 0 167.5 146.5t239.5 422.5v6l11 199l151 14l-102 -725l-8 -217l-156 -14l64 459h-13q-102 -174 -185.5 -282t-172.5 -177h-23q-70 16 -114 61.5t-43 114.5zM354 1341l58 80l16 2 q147 -142 334 -297l-43 -61l-17 -2q-149 105 -346 260z" />
<glyph unicode="&#xfa;" horiz-adv-x="964" d="M111 168l2 27l84 528l16 215l152 12l-107 -686l-4 -43q-3 -61 41 -61q61 0 167.5 146.5t239.5 422.5v6l11 199l151 14l-102 -725l-8 -217l-156 -14l64 459h-13q-102 -174 -185.5 -282t-172.5 -177h-23q-70 16 -114 61.5t-43 114.5zM377 1126q190 158 332 297l18 -2 l57 -80l-4 -18q-212 -168 -344 -260l-16 2z" />
<glyph unicode="&#xfb;" horiz-adv-x="964" d="M111 168l2 27l84 528l16 215l152 12l-107 -686l-4 -43q-3 -61 41 -61q61 0 167.5 146.5t239.5 422.5v6l11 199l151 14l-102 -725l-8 -217l-156 -14l64 459h-13q-102 -174 -185.5 -282t-172.5 -177h-23q-70 16 -114 61.5t-43 114.5zM309 1128q116 105 279 275h47 q105 -151 211 -275l-49 -61h-17q-98 100 -182 215q-86 -86 -236 -215h-18z" />
<glyph unicode="&#xfc;" horiz-adv-x="964" d="M111 168l2 27l84 528l16 215l152 12l-107 -686l-4 -43q-3 -61 41 -61q61 0 167.5 146.5t239.5 422.5v6l11 199l151 14l-102 -725l-8 -217l-156 -14l64 459h-13q-102 -174 -185.5 -282t-172.5 -177h-23q-70 16 -114 61.5t-43 114.5zM330 1239q0 41 23.5 65.5t64.5 24.5 q38 0 60 -23.5t22 -60.5q0 -41 -24 -66.5t-62 -25.5q-40 0 -62 23t-22 63zM655 1237q0 42 24 66t66 24q37 0 58.5 -23t21.5 -61q0 -41 -23.5 -65.5t-62.5 -24.5q-40 0 -62 22t-22 62z" />
<glyph unicode="&#xfe;" horiz-adv-x="913" d="M47 -393l225 1620l9 200l151 13l-127 -918h23q151 264 323 430h31q154 -93 154 -321q0 -110 -31 -215.5t-89.5 -195.5t-152.5 -153t-209 -81h-10l-108 24l-23 -164l-10 -225zM254 145l131 -36q95 0 167 66.5t108 175t36 241.5q0 71 -10 116t-23 59.5t-28 14.5 q-13 0 -39 -22t-64 -69t-80 -111.5t-92 -158.5t-96 -200z" />
<glyph unicode="&#xff;" horiz-adv-x="833" d="M-211 -236l16 13q85 -31 150 -31q183 0 344 240l-184 948l149 14l25 -164l96 -602h27l184 350q74 139 74 226q0 70 -49 137l6 20l141 33q47 -75 47 -164q0 -124 -100 -303l-236 -415q-145 -252 -266 -358.5t-256 -106.5q-86 0 -160 32zM213 1239q0 41 23.5 65.5 t64.5 24.5q38 0 60 -23.5t22 -60.5q0 -41 -24 -66.5t-62 -25.5q-40 0 -62 23t-22 63zM539 1237q0 42 24 66t66 24q37 0 58.5 -23t21.5 -61q0 -41 -23.5 -65.5t-62.5 -24.5q-40 0 -62 22t-22 62z" />
<glyph unicode="&#x152;" horiz-adv-x="1665" d="M94 535q0 371 190.5 585.5t522.5 214.5q62 0 165.5 -12t157.5 -12h580l8 -15l-28 -120l-279 8h-262l-55 -447l219 -4l221 6l8 -14l-29 -119l-229 4l-213 -2l-24 -209l-31 -268l239 -4l308 8l10 -14l-29 -121h-577q-59 1 -182 -12t-181 -13q-244 0 -377 148t-133 412z M252 543q0 -439 385 -439q113 0 186 21q30 8 44 23t18 45l104 913q4 38 1 54t-17 22q-26 9 -83 17.5t-114 8.5q-256 0 -390 -173t-134 -492z" />
<glyph unicode="&#x153;" horiz-adv-x="1323" d="M86 307q0 279 124 457t335 190h18q166 -26 203 -182q122 173 326 182l20 -2q174 -25 174 -182q0 -240 -508 -412q0 -127 32 -185t99 -58q70 0 138 53.5t110 138.5l25 -2l51 -72q-143 -205 -322 -247h-22q-98 10 -152 56.5t-75 131.5q-116 -174 -324 -192l-16 2 q-121 22 -178.5 98t-57.5 225zM227 307q0 -108 30.5 -157.5t98.5 -49.5q139 0 215 144.5t76 388.5q0 105 -30.5 153t-96.5 48q-142 0 -217.5 -142.5t-75.5 -384.5zM784 471q365 119 365 289q0 84 -96 84q-104 0 -177 -102t-92 -271z" />
<glyph unicode="&#x178;" horiz-adv-x="1028" d="M135 1311h162l14 -72l201 -596h14l373 592l39 76h168l-539 -834l-14 -94l-43 -383h-154l60 383l10 96zM410 1612q0 41 23.5 65.5t64.5 24.5q38 0 60 -23.5t22 -60.5q0 -41 -24 -66.5t-62 -25.5q-40 0 -62 23t-22 63zM735 1610q0 42 24 66t66 24q37 0 58.5 -23t21.5 -61 q0 -41 -23.5 -65.5t-62.5 -24.5q-40 0 -62 22t-22 62z" />
<glyph unicode="&#x2c6;" horiz-adv-x="798" d="M211 1128q108 98 278 275h48q105 -151 211 -275l-50 -61h-16q-98 100 -182 215q-86 -86 -236 -215h-18z" />
<glyph unicode="&#x2dc;" horiz-adv-x="798" d="M172 1184v14l125 137l18 6q43 -5 167.5 -39t150.5 -34q9 0 18 4t22 15t21 18.5t27.5 27.5t28.5 29h14l49 -51v-15l-125 -137l-18 -8q-41 5 -166 40.5t-152 35.5q-9 0 -18.5 -4.5t-21 -14.5t-20.5 -19t-26 -27t-28 -29h-19z" />
<glyph unicode="&#x2000;" horiz-adv-x="898" />
<glyph unicode="&#x2001;" horiz-adv-x="1796" />
<glyph unicode="&#x2002;" horiz-adv-x="898" />
<glyph unicode="&#x2003;" horiz-adv-x="1796" />
<glyph unicode="&#x2004;" horiz-adv-x="598" />
<glyph unicode="&#x2005;" horiz-adv-x="449" />
<glyph unicode="&#x2006;" horiz-adv-x="299" />
<glyph unicode="&#x2007;" horiz-adv-x="299" />
<glyph unicode="&#x2008;" horiz-adv-x="224" />
<glyph unicode="&#x2009;" horiz-adv-x="359" />
<glyph unicode="&#x200a;" horiz-adv-x="99" />
<glyph unicode="&#x2010;" horiz-adv-x="630" d="M57 444l13 99l503 69l13 -14l-13 -98l-503 -70z" />
<glyph unicode="&#x2011;" horiz-adv-x="630" d="M57 444l13 99l503 69l13 -14l-13 -98l-503 -70z" />
<glyph unicode="&#x2012;" horiz-adv-x="630" d="M57 444l13 99l503 69l13 -14l-13 -98l-503 -70z" />
<glyph unicode="&#x2013;" horiz-adv-x="980" d="M-29 481l21 97h1024l8 -13l-18 -96h-1024z" />
<glyph unicode="&#x2014;" horiz-adv-x="1908" d="M-31 481l21 97h1956l10 -13l-21 -96h-1955z" />
<glyph unicode="&#x2018;" horiz-adv-x="333" d="M129 1047q0 126 147 270l60 -43l2 -12q-88 -91 -88 -172q0 -79 80 -111v-14q-34 -34 -90 -68q-111 42 -111 150z" />
<glyph unicode="&#x2019;" horiz-adv-x="335" d="M131 936v12q86 96 86 172q0 79 -80 111v16q29 26 92 68q109 -43 109 -152q0 -123 -148 -268z" />
<glyph unicode="&#x201a;" horiz-adv-x="468" d="M37 -170q113 90 113 180q0 52 -64 94v17q54 35 107 51q83 -53 83 -135q0 -132 -188 -268l-51 49v12z" />
<glyph unicode="&#x201c;" horiz-adv-x="577" d="M117 1047q0 124 147 268l60 -41v-12q-86 -96 -86 -172q0 -79 79 -111v-16q-29 -26 -92 -68q-108 42 -108 152zM379 1047q0 124 147 268l60 -41v-12q-86 -96 -86 -172q0 -79 80 -111v-16q-26 -24 -93 -68q-108 42 -108 152z" />
<glyph unicode="&#x201d;" horiz-adv-x="591" d="M123 948q88 95 88 172q0 79 -80 111v16q24 22 90 68q111 -42 111 -152q0 -123 -148 -268l-59 41zM383 936v12q86 96 86 172q0 79 -80 111v16q24 22 90 68q111 -42 111 -152q0 -123 -148 -268z" />
<glyph unicode="&#x201e;" horiz-adv-x="733" d="M37 -170q113 90 113 180q0 52 -64 94v17q54 35 107 51q83 -53 83 -135q0 -132 -188 -268l-51 49v12zM297 -170q113 90 113 180q0 52 -64 94v17q61 37 109 51q84 -55 84 -135q0 -131 -189 -268l-53 49v12z" />
<glyph unicode="&#x2022;" horiz-adv-x="520" d="M164 483q0 48 27.5 76.5t74.5 28.5q44 0 70 -26.5t26 -72.5q0 -47 -28 -75.5t-74 -28.5t-71 26t-25 72z" />
<glyph unicode="&#x2026;" horiz-adv-x="1185" d="M43 80q0 41 25.5 66.5t68.5 25.5q40 0 62 -23t22 -63q0 -43 -24.5 -69.5t-65.5 -26.5t-64.5 24.5t-23.5 65.5zM401 80q0 42 25.5 67t67.5 25q40 0 63 -23t23 -63q0 -43 -26 -69.5t-67 -26.5t-63.5 24t-22.5 66zM756 80q0 42 25 67t67 25q41 0 63.5 -23t22.5 -63 q0 -43 -24.5 -69.5t-65.5 -26.5t-64.5 24.5t-23.5 65.5z" />
<glyph unicode="&#x202f;" horiz-adv-x="359" />
<glyph unicode="&#x2039;" horiz-adv-x="466" d="M61 451l5 32l342 346l69 -43v-18l-295 -305l219 -307l-4 -19l-80 -43z" />
<glyph unicode="&#x203a;" horiz-adv-x="475" d="M16 137v21l295 305l-221 307l6 18l78 43l256 -356l-4 -33l-342 -346z" />
<glyph unicode="&#x205f;" horiz-adv-x="449" />
<glyph unicode="&#x20ac;" horiz-adv-x="1009" d="M27 340l16 82h145q7 86 17 143h-146l-6 10l17 80h155q57 181 183.5 276t314.5 95q150 0 270 -76l-37 -102l-14 -4q-98 76 -235 76q-129 0 -218.5 -67.5t-130.5 -197.5h385l9 -8l-19 -82h-399q-15 -71 -15 -143h396l6 -10l-16 -82h-381q17 -115 85.5 -174.5t186.5 -59.5 q67 0 140 22.5t134 61.5l17 -10l-23 -100q-142 -82 -286 -82q-179 0 -277.5 87.5t-112.5 254.5h-155z" />
<glyph unicode="&#x2122;" horiz-adv-x="1191" d="M154 1247l12 64h364l5 -8l-15 -64l-92 4h-47l-35 -262l-14 -152h-84l20 144l33 270h-47l-96 -4zM563 829l113 482h104l15 -72l65 -244h6l135 244l33 72h99l-13 -482h-76l9 146l2 203h-8l-166 -297h-70l-88 297h-4l-49 -193l-31 -156h-76z" />
<glyph unicode="&#x25fc;" horiz-adv-x="952" d="M0 0v952h952v-952h-952z" />
</font>
</defs>
</svg>
